#TITLE:ZHOU DA XIA;
#SUBTITLE:Initiate;
#ARTIST:Jay Chou;
#TITLETRANSLIT:;
#SUBTITLETRANSLIT:;
#ARTISTTRANSLIT:;
#CREDIT:;
#BANNER:ZhouDaXia-bn.jpg;
#BACKGROUND:ZhouDaXia-bg.jpg;
#LYRICSPATH:;
#CDTITLE:cdtitle.png;
#MUSIC:zhoudaxia1.4.mp3;
#OFFSET:-0.020;
#SAMPLESTART:60.734;
#SAMPLELENGTH:12.000;
#SELECTABLE:YES;
#BPMS:0.000=235.200;
#STOPS:;
#BGCHANGES:0.000=ZhouDaXia-bg.jpg=1.000=1=1=0,
112.000=ZhouDaXia1-bg.jpg=1.000=0=0=1,
114.000=ZhouDaXia2-bg.jpg=1.000=0=0=1,
116.000=ZhouDaXia1-bg.jpg=1.000=0=0=1,
118.000=ZhouDaXia2-bg.jpg=1.000=0=0=1,
120.000=ZhouDaXia-bg.jpg=1.000=0=0=1,
128.000=ZhouDaXia1-bg.jpg=1.000=0=0=1,
130.000=ZhouDaXia2-bg.jpg=1.000=0=0=1,
132.000=ZhouDaXia1-bg.jpg=1.000=0=0=1,
134.000=ZhouDaXia2-bg.jpg=1.000=0=0=1,
136.000=ZhouDaXia-bg.jpg=1.000=0=0=1,
144.000=ZhouDaXia1-bg.jpg=1.000=0=0=1,
146.000=ZhouDaXia2-bg.jpg=1.000=0=0=1,
148.000=ZhouDaXia1-bg.jpg=1.000=0=0=1,
150.000=ZhouDaXia2-bg.jpg=1.000=0=0=1,
152.000=ZhouDaXia-bg.jpg=1.000=0=0=1,
160.000=ZhouDaXia1-bg.jpg=1.000=0=0=1,
162.000=ZhouDaXia2-bg.jpg=1.000=0=0=1,
164.000=ZhouDaXia1-bg.jpg=1.000=0=0=1,
166.000=ZhouDaXia2-bg.jpg=1.000=0=0=1,
168.000=ZhouDaXia-bg.jpg=1.000=0=0=1,
288.000=ZhouDaXia1-bg.jpg=1.000=0=0=1,
290.000=ZhouDaXia2-bg.jpg=1.000=0=0=1,
292.000=ZhouDaXia1-bg.jpg=1.000=0=0=1,
294.000=ZhouDaXia2-bg.jpg=1.000=0=0=1,
296.000=ZhouDaXia-bg.jpg=1.000=0=0=1,
304.000=ZhouDaXia1-bg.jpg=1.000=0=0=1,
306.000=ZhouDaXia2-bg.jpg=1.000=0=0=1,
308.000=ZhouDaXia1-bg.jpg=1.000=0=0=1,
310.000=ZhouDaXia2-bg.jpg=1.000=0=0=1,
312.000=ZhouDaXia-bg.jpg=1.000=0=0=1,
320.000=ZhouDaXia1-bg.jpg=1.000=0=0=1,
322.000=ZhouDaXia2-bg.jpg=1.000=0=0=1,
324.000=ZhouDaXia1-bg.jpg=1.000=0=0=1,
326.000=ZhouDaXia2-bg.jpg=1.000=0=0=1,
328.000=ZhouDaXia-bg.jpg=1.000=0=0=1,
336.000=ZhouDaXia1-bg.jpg=1.000=0=0=1,
338.000=ZhouDaXia2-bg.jpg=1.000=0=0=1,
340.000=ZhouDaXia1-bg.jpg=1.000=0=0=1,
342.000=ZhouDaXia2-bg.jpg=1.000=0=0=1,
344.000=ZhouDaXia-bg.jpg=1.000=0=0=1,
352.500=ZhouDaXia3-bg.jpg=1.000=0=0=1,
99999=-nosongbg-=1.000=0=0=0 // don't automatically add -songbackground-
;
// cache tags:
#FIRSTBEAT:0.000;
#LASTBEAT:352.500;
#SONGFILENAME:Songs/Initiate/zhoudaxia1.4/ZHOU DA XIA CD VERSION.sm;
#HASMUSIC:1;
#HASBANNER:1;
#MUSICLENGTH:94.223;
// end cache tags

//---------------dance-single - Copied from----------------
#NOTES:
     dance-single:
     Copied from:
     Hard:
     15:
     1.000,1.000,1.000,0.573,1.000,989.000,399.000,54.000,0.000,77.000:
0001
0010
0100
0001
1010
0100
1001
0100
0010
0001
1000
0100
0010
1000
0100
0010
,
0001
0010
0100
1000
0001
0010
0100
0001
0010
0100
1000
0100
0010
0001
1000
0100
,
0010
1000
0100
0010
1001
0010
0101
1000
0001
0010
0100
0001
0010
0100
1000
0100
,
0010
0010
1000
1000
0010
0010
1000
1000
0010
0010
1001
0100
0010
0001
1010
0100
,
0010
0001
1000
0010
0101
1000
0101
1000
0100
0010
0001
0010
0100
0010
0100
0010
,
0001
1000
0100
0010
1001
0100
0011
1000
0001
0010
0100
1000
0100
1000
0100
0010
,
0001
0100
0010
0100
1010
0001
1100
0010
0100
1000
0001
0010
1000
0010
0100
1000
,
0001
0100
0010
1000
0100
0010
0001
1000
0100
0010
1000
0001
0010
0100
1000
0001
,
0100
0010
1000
0100
0011
1000
0101
0010
0100
0001
1000
0100
0010
1000
0100
0001
,
0100
1000
0001
0010
1100
0010
0101
1000
0100
1000
0100
0010
1000
0010
0100
1000
,
0100
0010
0001
0010
1100
0001
1100
0010
0001
0010
0100
0001
0100
0010
0001
1000
,
0020
0000
0000
0000
0000
0000
0000
0000
1030
0100
1000
0100
1000
0100
1000
0100
,
1001
1010
0110
1001
0110
0101
1010
0110
,
0011
0000
0110
0000
1010
0101
1010
0000
0000
0000
0110
0000
1001
0000
0110
0000
,
0011
0110
1100
0110
1001
1100
0110
0011
,
0100
0000
1001
0000
0110
1001
0110
0000
0000
0000
0110
0000
1100
0000
0110
0000
,
0011
0110
1100
1010
0110
1010
0011
1010
,
1100
0000
0110
0000
1001
0110
1001
0000
0000
0000
0110
0000
1100
0000
0110
0000
,
0011
1010
1100
1010
1001
0110
0011
0110
,
1100
0000
0000
0000
0110
0000
0000
0000
1001
0000
1001
0000
0110
0000
0000
0000
0000
0000
0000
0000
0110
0000
0000
0000
1000
0001
0010
0100
1000
0100
0010
0001
,
1000
0100
0010
0001
0010
0100
1000
0001
0100
0001
0100
0001
1000
0100
0010
0001
,
1000
0001
0100
0001
0100
0001
1000
0100
0010
0001
1000
0001
0010
0100
1000
0001
,
1000
0001
1000
0001
1000
0100
0010
0001
0010
0001
0010
0100
1000
0100
0010
0001
,
1000
0100
0010
0001
0010
0001
0010
0100
1000
0001
0100
0001
1000
0100
0010
0001
,
1000
0100
0010
1000
0100
0001
1000
0100
0010
1000
0010
0100
0001
0010
0100
1000
,
0010
0100
1000
0100
0010
0001
1000
0100
0010
0001
0010
0100
1001
0000
0000
0000
,
0110
1100
0110
0011
0110
1100
0110
0011
,
0110
1100
0110
0110
1001
0101
1001
0101
,
0101
1001
1010
1001
0101
1001
1010
1001
,
0101
1001
1010
1001
0101
1001
1010
1001
,
0100
1001
0110
1100
1010
0011
0110
1010
,
0011
1001
1100
0010
0101
1010
0101
1000
,
0101
1010
0101
1000
0101
1010
0101
1000
,
0101
1010
0101
1000
0101
1010
0101
1000
,
0100
1000
0011
0100
0001
0010
0001
1000
0001
0010
0001
1000
0001
1000
0101
0010
,
0100
0001
0010
1000
0001
0100
0010
0100
1001
0010
0001
0100
0011
1000
0100
0010
,
1001
1010
1001
1010
1001
0101
1001
0101
,
1001
1010
1001
1010
0101
1001
0101
1001
,
0101
1100
0110
0011
1010
0101
1010
0110
,
0011
0110
1100
0110
0011
0110
1010
0110
,
0101
0110
0101
0110
1001
0101
1001
0101
,
1010
1001
1010
1001
0110
0101
0110
0101
,
0201
1000
0001
0010
0001
0010
1000
0001
1320
0100
0001
1000
0001
0100
1001
0100
,
1032
0010
0100
0010
1000
0010
0100
1000
0023
1000
0100
0001
1000
0100
0001
1000
,
0231
0000
0321
0000
,
1230
0000
0321
0000
,
0000
0000
0000
0000
,
1031
0000
0010
0000
0001
0000
0010
0000
1001
0000
0010
0000
0001
0000
0010
0000
1001
0000
0010
0000
0001
0000
0010
0000
1000
0100
0001
1000
0100
0001
1000
0100
,
0001
0010
1000
0010
0100
1000
0010
0100
0001
1000
0100
0001
0100
1000
0001
0010
,
0201
0010
0001
0010
2301
0010
0001
0010
3201
0010
0001
0010
2301
0010
0001
0010
,
3201
0010
0001
0010
2301
0010
0001
0010
3201
0010
0001
0010
2301
0010
0001
0010
,
3201
0010
0001
0010
2301
0010
0001
0010
3201
0010
0001
0010
2301
0010
0100
0000
,
3021
1100
1132
1100
1123
1100
1132
0000
,
1213
0011
2311
0011
3211
0011
2311
0000
,
3201
0010
1321
0100
1231
0000
1301
0000
,
1001
0000
0000
0000
0000
0000
0000
0000
1001
0000
0000
0000
0000
0000
0000
0000
1001
0000
0000
0000
1001
0000
0000
0000
0011
1000
0100
0001
0010
1000
0100
0001
,
1010
0000
0211
0011
2311
0011
3211
0000
,
1320
1100
1132
1100
1123
0000
1231
0010
,
1320
0000
2031
0110
3021
1100
1132
1100
,
1023
1001
0230
0011
2311
0011
3211
1001
,
1320
1100
1132
1100
1123
1100
0231
1001
,
1310
0011
0101
1010
2112
0000
0000
0000
,
3113
0000
0101
0110
1001
1100
1010
1100
,
0101
0000
0000
0000
1100
0000
0000
0000
0110
0000
0000
0000
1001
0000
0000
0000
1000
0001
0100
0010
1000
0001
0100
0010
1000
0001
0100
0010
1000
0001
0100
0010
,
1001
0000
0101
0000
,
0101
0000
0000
0000
0000
0000
0100
0010
1001
0000
1000
0000
0110
0000
0001
0000
,
0011
1000
0010
1000
0011
0000
0001
0010
1100
0000
1000
0000
0011
0000
0001
0000
,
1100
0000
0000
0000
1100
0000
0101
0001
,
1010
0001
1000
0001
1010
0000
0000
0000
1010
0000
0000
0000
0000
0000
0000
0000
,
1100
0000
0000
0000
0000
0000
0010
0100
1000
0000
1000
0000
0101
0000
0001
0000
,
1001
0100
1000
0100
1001
0100
1000
0100
1001
0100
1000
0100
1001
0100
1000
0100
,
1020
0100
1001
0100
1001
0100
1001
0100
1031
0000
0010
0100
1001
0010
0001
0100
,
1001
1010
1001
1010
1001
0101
1001
0101
,
1010
0110
1010
0110
1001
1100
1001
1100
,
1001
0110
1100
0110
0011
0110
0011
1010
,
0101
0000
1001
0000
0101
0000
1010
0101
1010
0001
0100
1000
0110
0001
0010
0100
,
1000
0100
1010
0001
0010
0100
1000
0100
0010
0001
1010
0100
0010
0100
1000
0100
,
0010
0001
1010
0100
0010
0001
0010
0100
1000
0100
1010
0001
0010
0100
1000
0100
,
1010
0101
1010
1010
0101
0110
1100
0101
,
1010
0000
0101
0000
0110
0000
1010
0101
1010
0001
0100
1000
0101
0010
0101
0010
,
0001
0010
1001
0100
0010
0001
0010
0100
1000
0100
1001
0010
0100
1000
0100
0010
,
0001
0010
1100
0010
0001
0010
0100
1000
0100
0010
0101
1000
0100
0010
0001
0010
,
1100
1001
0110
0011
1100
0110
1001
0110
,
1001
0000
0110
0000
0101
0000
0100
1000
0110
0001
0010
1000
0101
1000
0001
0010
,
1001
0100
0001
0100
1010
0100
0001
0100
1010
0001
0100
0001
1010
0001
0100
0001
,
1010
0100
0001
0100
1010
0100
0001
0100
1010
0001
1000
0001
1010
0001
1000
0001
,
1010
0100
0001
0100
1010
0100
1000
0001
1100
0010
0001
1000
0101
0010
0001
1000
,
0110
1000
0100
0010
1100
0001
0010
0100
1010
0001
1000
0010
0101
1000
0001
1000
,
0110
1001
0110
0000
0000
0000
0000
0000
0000
0000
0000
0000
0000
0000
0000
0000
;

//---------------dance-single - Copied from Copied f----------------
#NOTES:
     dance-single:
     Copied from Copied f:
     Easy:
     6:
     1.000,1.000,0.934,0.212,0.080,552.000,88.000,20.000,0.000,0.000:
0010
0001
0100
1000
0100
0001
0100
0001
,
0100
1000
0100
0001
0100
1000
0001
1000
,
0100
0001
0100
1000
0100
0001
0100
1000
,
0100
0000
0001
0000
0001
0000
0001
0000
0001
0000
0001
0000
0001
0000
0010
0010
,
0010
1000
0100
0001
0100
1000
0001
0000
,
0100
1000
0100
0001
0100
1000
0100
0000
,
0001
0100
1000
0100
0001
0100
1000
0000
,
0001
0100
1000
0100
0001
0100
1000
0000
,
0100
0001
0100
1000
0100
0001
0100
0000
,
0100
0100
0100
0001
0100
1000
0100
0000
,
0001
0100
1000
0100
0001
0100
1000
0000
,
0200
0000
0000
0000
0000
0000
1300
0001
,
0100
0010
0100
0001
0100
0001
0010
0010
,
0001
0000
1000
0000
0010
0010
1000
0000
0000
0000
0010
0000
0001
0000
0100
0000
,
1000
0010
0001
0100
0010
0001
1000
0100
,
0010
0000
0001
0000
0010
0010
0100
0000
0000
0000
1000
0000
0001
0000
0010
0000
,
1000
0001
0100
0001
0100
0100
0100
1000
,
0010
0001
0010
0001
0000
1000
0100
0001
,
0010
0100
0010
0010
0100
0010
1000
0010
,
0001
0010
0100
0010
0000
1001
1001
0000
,
0000
0010
0100
1000
0100
0010
0001
0010
,
0000
0001
0100
1000
0100
0010
0001
0010
,
0000
0001
0010
0100
1000
0100
0010
0001
,
0000
1000
0100
0010
0001
0010
0100
1000
,
1010
0011
1010
0011
,
0011
1000
0110
0000
1001
0000
1001
0000
,
0001
0100
1000
1000
0010
0001
0001
1000
,
1000
0100
0100
0010
0010
0001
0001
0010
,
0011
1100
0011
1100
,
0011
1100
0011
1100
,
0011
0001
1100
0010
1001
0010
0101
1000
,
0101
0010
1001
0100
0011
0000
1010
0000
,
1010
0101
1010
0101
,
1010
0101
1010
0101
,
1010
0100
0101
0010
1010
0001
1100
0001
,
1100
0010
1001
0010
0011
0100
1010
1000
,
0110
1001
0110
1001
,
0110
1001
0110
1001
,
0101
0001
1010
0100
0101
1000
0011
1000
,
1001
0100
1010
0010
0101
0000
0011
0000
,
1100
0011
1100
0011
,
1100
0011
1100
0011
,
1100
0001
1010
0100
1001
0010
0011
0100
,
1001
0100
1010
0001
1100
1000
0011
0000
,
2000
0000
3200
0000
,
0320
0000
2030
0000
,
0000
0000
0000
0000
,
3001
0000
0001
0000
0001
1000
0001
1000
0001
1000
0001
1000
0001
1000
0001
1000
,
0001
0001
0010
1000
0010
0000
0100
0001
,
1000
0010
0001
0010
1000
0000
0001
0010
,
0100
0000
0100
0010
0001
0000
0100
0000
,
1000
0001
0010
1000
0001
0000
0100
0000
,
1000
0100
0001
0001
0001
0001
0001
0000
,
0001
0010
1000
1000
1000
1000
1000
0000
,
0100
0001
1000
0010
0001
0000
0010
0000
,
0100
0000
1000
0000
0010
0001
0100
0000
,
0001
0000
0100
0001
1000
0100
0001
0000
,
0001
0001
0010
0010
0100
0000
1000
0100
,
0010
0000
0001
0010
1000
0010
0001
0010
,
1000
0100
0001
1000
0100
0001
0010
1000
,
0100
0010
0001
0000
0010
1000
0001
1000
,
0100
0001
0002
0000
,
0013
0000
0010
1000
1000
0100
0001
0010
,
0100
0000
1000
0000
0100
0000
0010
0000
0001
1000
0001
1000
0001
1000
0001
1000
,
0002
0000
0203
0000
,
2300
0000
0000
0000
0000
0000
3000
0100
0001
0000
0000
0000
0010
0000
0000
0000
,
2000
0000
3200
0000
,
0320
0000
0032
0000
,
0023
0000
0230
0000
,
2300
0000
0000
0000
0000
0000
3000
0100
0020
0000
0000
0000
0000
0000
0000
0000
,
0230
0000
0302
0000
,
0023
0000
0000
0000
0000
0000
1030
0100
,
1000
0011
0001
1100
,
1000
0011
0001
1100
,
1010
0001
0101
1000
0101
1000
0011
1000
,
0011
1000
0011
1000
1001
0000
0011
0000
,
0100
0001
0010
0100
1000
0010
1000
0001
,
0100
0001
1000
0100
0001
0100
1000
0000
,
0100
0010
0001
0100
0010
1000
0100
0001
,
0010
0100
1000
0001
0100
0001
1000
0100
,
0001
0001
0001
1000
0100
0001
1000
0010
,
1000
0100
0010
1000
0001
1000
0001
0010
,
0100
0001
1000
0001
1000
0100
0010
0001
,
1000
0100
0010
0001
1000
0000
0001
0000
,
1000
0100
0001
1000
1000
0100
0010
0001
,
1000
0100
0001
0010
1000
0100
0001
0001
,
1000
0100
0001
0100
1000
0010
1000
0001
,
0010
0001
0010
1000
0100
0001
0010
1000
,
0011
0011
0000
0000
0000
0000
0000
0000
;
